.
Авторизация | Регистрация

torrent-fuck.xyz

» » Девчата (1961) BDRemux 1080p | Реставрация скачать торрент бесплатно


    Девчата (1961) BDRemux 1080p | Реставрация скачать торрент бесплатно

    Дата: 27-05-2018, 11:00 | .torrent скачали: 140


    Девчата (1961) BDRemux 1080p | Реставрация
    Детально о кино
    Русское название: Девчата
    Создали в: 1961
    Категория жанра: Комедия
    Главный режиссер: Юрий Чулюкин

    Актеры
    Надежда Румянцева, Николай Рыбников, Люсьена Овчинникова, Станислав Хитров, Инна Макарова, Светлана Дружинина, Нина Меньшикова, Николай Погодин, Михаил Пуговкин, Анатолий Адоскин, Виктор Байков, Роман Филиппов, Алексей Крыченков, Петр Кирюткин, Михаил Кокшенов

    Сюжет фильма

    В отдаленный северный городок приехала Тося Кислицына, которую в тот же день приняли на работу в качестве поварихи. И в этот же день она повстречала красавца Илью, который нравился почти всем женщинам. Знакомство начинается с ссоры, но позже перерастает в любовную историю.

    Снималось в: СССР
    Киностудия: Мосфильм
    Время просмотра: 01: 36: 02
    Перевод текста: Не требуется (Русский язык)
    Субтитры: Русские, английские (отключаемые)
    Файл
    Качество фильма: BDRemux 1080p
    Информация о видео: AVC/H.264, 1920x1080, ~17998 kbps, 23.976 fps
    Информация о звуке 1: DTS-HD MA 5.1, 3620 kbps, 48 kHz | Русский
    Информация о звуке 2: AC3 5.1, 448 kbps, 48 kHz | Русский
    Информация о звуке 3: AC3 1.0, 192 kbps, 48 kHz | Русский
    Релиз подготовил: Lelya_K
    Дата выхода DVD релиза: 11 января 2011, Парадиз Медиа
    Дата выхода Blu-Ray релиза: 8 мая 2012, Парадиз Медиа
    Возраст: 0+ (для любой зрительской аудитории)
    Дополнительно
    Полная реставрация изображения и звука. Исходные киноматериалы подготовлены Госфильмофондом России. Покадровая цифровая реставрация изображения, ремастеринг звука и авторинг проведены объединением Крупный план.
    M/I
    Полное имя : D: Девчата.(1961).BRemux.1080p.mkv
    Формат : Matroska
    Версия формата : Version 2
    Размер файла : 14, 9 Гбайт
    Продолжительность : 1 ч. 36 м.
    Режим общего битрейта : Переменный
    Общий поток : 22, 3 Мбит/сек
    Название фильма : Девчата (1961)/Lelya_K for NNM-Club
    Дата кодирования : UTC 2014-03-10 15: 06: 34
    Программа кодирования : mkvmerge v5.7.0 (;The Whirlwind;) built on Aug 7 2012 14: 11: 40
    Библиотека кодирования : libebml v1.2.3 + libmatroska v1.3.0
    Attachment : Yes
    Видео
    Идентификатор : 1
    Формат : AVC
    Формат/Информация : Advanced Video Codec
    Профиль формата : High@L4.1
    Параметр CABAC формата : Да
    Параметр ReFrames формата : 4 кадра
    Идентификатор кодека : V_MPEG4/ISO/AVC
    Продолжительность : 1 ч. 36 м.
    Вид битрейта : Переменный
    Битрейт : 19, 6 Мбит/сек
    Максимальный битрейт : 23, 0 Мбит/сек
    Ширина : 1920 пикселей
    Высота : 1080 пикселей
    Соотношение сторон : 16: 9
    Режим частоты кадров : Постоянный
    Частота кадров : 23, 976 кадра/сек
    Стандарт вещания : NTSC
    Цветовое пространство : YUV
    Субдискретизация насыщенности : 4: 2: 0
    Битовая глубина : 8 бит
    Тип развёртки : Прогрессивная
    Бит/(Пиксели*Кадры) : 0.395
    Размер потока : 13, 2 Гбайт (88%)
    Заголовок : Девчата.(1961).BRemux.1080p
    Язык : Russian
    Default : Да
    Forced : Нет
    Основные цвета : BT.709
    Характеристики трансфера : BT.709
    Коэффициенты матрицы : BT.709
    Аудио #1
    Идентификатор : 2
    Формат : DTS
    Формат/Информация : Digital Theater Systems
    Профиль формата : MA/Core
    Идентификатор кодека : A_DTS
    Продолжительность : 1 ч. 36 м.
    Вид битрейта : Переменный
    Битрейт : 1561 Кбит/сек/1510 Кбит/сек
    Каналы : 6 каналов
    Расположение каналов : Front: L C R, Side: L R, LFE
    Частота : 48, 0 КГц
    Битовая глубина : 24 бит
    Метод сжатия : Без потерь/Lossy
    Заголовок : DTS-HD MA 5.1/3620 kbps
    Язык : Russian
    Default : Да
    Forced : Нет
    Аудио #2
    Идентификатор : 3
    Формат : AC-3
    Формат/Информация : Audio Coding 3
    Расширение режима : CM (complete main)
    Параметр Endianness формата : Big
    Идентификатор кодека : A_AC3
    Продолжительность : 1 ч. 36 м.
    Вид битрейта : Постоянный
    Битрейт : 448 Кбит/сек
    Каналы : 6 каналов
    Расположение каналов : Front: L C R, Side: L R, LFE
    Частота : 48, 0 КГц
    Битовая глубина : 16 бит
    Метод сжатия : С потерями
    Размер потока : 308 Мбайт (2%)
    Заголовок : AC3 5.1/448 kbps
    Язык : Russian
    Default : Нет
    Forced : Нет
    Аудио #3
    Идентификатор : 4
    Формат : AC-3
    Формат/Информация : Audio Coding 3
    Расширение режима : CM (complete main)
    Параметр Endianness формата : Big
    Идентификатор кодека : A_AC3
    Продолжительность : 1 ч. 36 м.
    Вид битрейта : Постоянный
    Битрейт : 192 Кбит/сек
    Каналы : 1 канал
    Расположение каналов : Front: C
    Частота : 48, 0 КГц
    Битовая глубина : 16 бит
    Метод сжатия : С потерями
    Размер потока : 132 Мбайт (1%)
    Заголовок : AC3 1.0/192 kbps
    Язык : Russian
    Default : Нет
    Forced : Нет
    Текст #1
    Идентификатор : 5
    Формат : UTF-8
    Идентификатор кодека : S_TEXT/UTF8
    Идентификатор кодека/Информация : UTF-8 Plain Text
    Заголовок : Full
    Язык : Russian
    Default : Нет
    Forced : Нет
    Текст #2
    Идентификатор : 6
    Формат : UTF-8
    Идентификатор кодека : S_TEXT/UTF8
    Идентификатор кодека/Информация : UTF-8 Plain Text
    Заголовок : Full
    Язык : English
    Default : Нет
    Forced : Нет
    Меню
    00: 00: 00.000 : ru: Chapter 1
    00: 12: 34.753 : ru: Chapter 2
    00: 20: 29.561 : ru: Chapter 3
    00: 26: 55.822 : ru: Chapter 4
    00: 34: 21.851 : ru: Chapter 5
    00: 39: 25.905 : ru: Chapter 6
    00: 44: 19.198 : ru: Chapter 7
    00: 50: 27.858 : ru: Chapter 8
    00: 55: 28.366 : ru: Chapter 9
    01: 07: 08.649 : ru: Chapter 10
    01: 11: 37.418 : ru: Chapter 11
    01: 17: 02.868 : ru: Chapter 12
    01: 20: 46.925 : ru: Chapter 13
    01: 24: 41.117 : ru: Chapter 14
    01: 27: 56.145 : ru: Chapter 15
    01: 33: 03.286 : ru: Chapter 16
    Скриншоты

    Залил: -=DoMiNo=-

    Онлайн видео Девчата (1961) BDRemux 1080p


    Размер скачиваемого торрента: 14.94 GB (16036601262 Bytes)

    Девчата (1961) BDRemux 1080p | Реставрация
    Рейтинг →
     (голосов: 1, оценка 4/5, голосовать можно 1 раз )

    Другие торренты по теме:

  • Девчата на колесах / The Rolling Girls (2015) HDTVRip 720p | L1 скачать через торрент бесплатно
  • Девчата (1961) Blu-Ray Remux 1080p
  • Девчата на колесах / The Rolling Girls (2015) HDTVRip 720p | L1
  • Девчата (1961) BDRip от MediaClub | КПК
  • Девочки - путешественницы (Девчата на колесах) (1-12 серии из 12) / The Rolling Girls / 2015 / ЛО (CACTUS TEAM) / HDTVRip (720p)
  • Борис Бедный - Девчата (2013) MP3
  • Девчата / 1961 / РУ / BDRip
  • Девчата / 1961 / РУ / Blu-Ray (1080p)


    • Комментарии (0):

      Информация

      Информация

        Посетители, находящиеся в группе Гости, не могут оставлять комментарии в данной новости.

        ↓ Меню




        ↓ Опрос

        А Вы добавили сайт в закладки?
        Да
        Не


        Популярное